الاهلاوية
td width="<!-
عزيزي الزائر / عزيزتي الزائرة يرجي التكرم بتسجبل الدخول اذا كنت عضو معنا
او التسجيل ان لم تكن عضو وترغب في الانضمام الي اسرة منتدى الاهلاوية
سنتشرف بتسجيلك
شكرا
ادارة المنتدي

الاهلاوية



 
الرئيسيةالبوابة*بحـثالتسجيلدخول

شاطر | 
 

 اجدد افلام اميتاب بتشان 2008 ومعاه بريتى زينتا The Last Lear (2008) 1CD PDVDRIP xvid

اذهب الى الأسفل 
كاتب الموضوعرسالة
محمد زين شوشه

avatar

ذكر
عدد الرسائل : 65
العمر : 30
الموقع : youtube
العمل/الترفيه : المحاسبة
المزاج : 100/100
تاريخ التسجيل : 22/03/2009

مُساهمةموضوع: اجدد افلام اميتاب بتشان 2008 ومعاه بريتى زينتا The Last Lear (2008) 1CD PDVDRIP xvid   الإثنين مارس 23, 2009 10:38 pm

]و اخر افلام النجم امتيات بتشان
The Last Lear (2008) 1CD PDVDRIP xvid

[ندعوك للتسجيل في المنتدى أو التعريف بنفسك لمعاينة هذا الرابط]


Format : AVI
Format/Info : Audio Video Interleave
Format profile : OpenDML
File size : 345 MiB
Duration : 58mn 5s
Overall bit rate : 830 Kbps
Writing application : AVI-Mux GUI 1.17.7, Aug 8 2006 20:59:17

Video
Format : MPEG-4 Visual
Format profile : Streaming Video@L1
Format settings, BVOP : Yes
Format settings, QPel : No
Format settings, GMC : 3 warppoints
Format settings, Matrix : Default
Codec ID : XVID
Codec ID/Hint : XviD
Duration : 58mn 5s
Bit rate : 697 Kbps
Width : 624 pixels
Height : 272 pixels
Display aspect ratio : 2.25
Frame rate : 29.970 fps
Resolution : 24 bits
Colorimetry : 4[ندعوك للتسجيل في المنتدى أو التعريف بنفسك لمعاينة هذا الرابط]0
Scan type : Progressive
Bits/(Pixel*Frame) : 0.137
Stream size : 290 MiB (84%)
Writing library : XviD 1.2.0.dev47 (UTC 2006-11-01)

Audio
Format : MPEG Audio
Format version : Version 1
Format profile : Layer 3
Codec ID : 55
Codec ID/Hint : MP3
Bit rate mode : Constant
Bit rate : 128 Kbps
Minimum bit rate : 128 Kbps
Channel(s) : 2 channels
Sampling rate : 48.0 KHz
Resolution : 16 bits
Stream size : 53.2 MiB (15%)
Alignment : Aligned on interleaves
Interleave, duration : 986 ms (29.55 video frames)
Interleave, preload duration : 216 ms
Title : 1 T80 2_0ch 384Kbps DELAY 0ms
Writing library : LAME3.98
Encoding settings : CBR


General
Complete name : The Last Lear 2008 Team DUS\The Last Lear 2008 Part-2.avi
Format : AVI
Format/Info : Audio Video Interleave
Format profile : OpenDML
File size : 340 MiB
Duration : 1h 1mn
Overall bit rate : 773 Kbps
Writing application : AVI-Mux GUI 1.17.7, Aug 8 2006 20:59:17

Video
Format : MPEG-4 Visual
Format profile : Streaming Video@L1
Format settings, BVOP : Yes
Format settings, QPel : No
Format settings, GMC : 3 warppoints
Format settings, Matrix : Default
Codec ID : XVID
Codec ID/Hint : XviD
Duration : 1h 1mn
Bit rate : 641 Kbps
Width : 624 pixels
Height : 272 pixels
Display aspect ratio : 2.25
Frame rate : 29.970 fps
Resolution : 24 bits
Colorimetry : 4[ندعوك للتسجيل في المنتدى أو التعريف بنفسك لمعاينة هذا الرابط]0
Scan type : Progressive
Bits/(Pixel*Frame) : 0.126
Stream size : 282 MiB (83%)
Writing library : XviD 1.2.0.dev47 (UTC 2006-11-01)

Audio
Format : MPEG Audio
Format version : Version 1
Format profile : Layer 3
Codec ID : 55
Codec ID/Hint : MP3
Bit rate mode : Constant
Bit rate : 128 Kbps
Minimum bit rate : 128 Kbps
Channel(s) : 2 channels
Sampling rate : 48.0 KHz
Resolution : 16 bits
Stream size : 56.3 MiB (17%)
Alignment : Aligned on interleaves
Interleave, duration : 1078 ms (32.30 video frames)
Interleave, preload duration : 216 ms
Title : 2 T80 2_0ch 384Kbps DELAY 0ms
Writing library : LAME3.98
Encoding settings : CBR
Source : WASP (TEAM DUS)


[ندعوك للتسجيل في المنتدى أو التعريف بنفسك لمعاينة هذا الرابط]
[ندعوك للتسجيل في المنتدى أو التعريف بنفسك لمعاينة هذا الرابط]
[ندعوك للتسجيل في المنتدى أو التعريف بنفسك لمعاينة هذا الرابط]
[ندعوك للتسجيل في المنتدى أو التعريف بنفسك لمعاينة هذا الرابط]

[ندعوك للتسجيل في المنتدى أو التعريف بنفسك لمعاينة هذا الرابط]

Code:

[ندعوك للتسجيل في المنتدى أو التعريف بنفسك لمعاينة هذا الرابط]
[ندعوك للتسجيل في المنتدى أو التعريف بنفسك لمعاينة هذا الرابط]
[ندعوك للتسجيل في المنتدى أو التعريف بنفسك لمعاينة هذا الرابط]
[ندعوك للتسجيل في المنتدى أو التعريف بنفسك لمعاينة هذا الرابط]

[ندعوك للتسجيل في المنتدى أو التعريف بنفسك لمعاينة هذا الرابط]
Code:

[ندعوك للتسجيل في المنتدى أو التعريف بنفسك لمعاينة هذا الرابط]
[ندعوك للتسجيل في المنتدى أو التعريف بنفسك لمعاينة هذا الرابط]
[ندعوك للتسجيل في المنتدى أو التعريف بنفسك لمعاينة هذا الرابط]
[ندعوك للتسجيل في المنتدى أو التعريف بنفسك لمعاينة هذا الرابط]

Subs:

[ندعوك للتسجيل في المنتدى أو التعريف بنفسك لمعاينة هذا الرابط]
[ندعوك للتسجيل في المنتدى أو التعريف بنفسك لمعاينة هذا الرابط]


روابط اخرى

[ندعوك للتسجيل في المنتدى أو التعريف بنفسك لمعاينة هذا الرابط]
Code:

[ندعوك للتسجيل في المنتدى أو التعريف بنفسك لمعاينة هذا الرابط]
[ندعوك للتسجيل في المنتدى أو التعريف بنفسك لمعاينة هذا الرابط]
[ندعوك للتسجيل في المنتدى أو التعريف بنفسك لمعاينة هذا الرابط]

روابط اخرى

ormat : AVI
Length : 1h 59mn 34s 641ms

Video : MPEG-4 Visual at 1062 Kbps
Aspect : 640 x 288 (2.222) at 29.970 fps

Audio : AC-3 at 384 Kbps
Infos : 2 channels, 48.0 KHz

Subtitles - None
Movie language - Hindi
Source - Pre DVD-R

[ندعوك للتسجيل في المنتدى أو التعريف بنفسك لمعاينة هذا الرابط]
Code:

[ندعوك للتسجيل في المنتدى أو التعريف بنفسك لمعاينة هذا الرابط]
[ندعوك للتسجيل في المنتدى أو التعريف بنفسك لمعاينة هذا الرابط]
[ندعوك للتسجيل في المنتدى أو التعريف بنفسك لمعاينة هذا الرابط]
[ندعوك للتسجيل في المنتدى أو التعريف بنفسك لمعاينة هذا الرابط]
[ندعوك للتسجيل في المنتدى أو التعريف بنفسك لمعاينة هذا الرابط]
[ندعوك للتسجيل في المنتدى أو التعريف بنفسك لمعاينة هذا الرابط]
[ندعوك للتسجيل في المنتدى أو التعريف بنفسك لمعاينة هذا الرابط][/quote]
الرجوع الى أعلى الصفحة اذهب الى الأسفل
https://www.youtube.com
 
اجدد افلام اميتاب بتشان 2008 ومعاه بريتى زينتا The Last Lear (2008) 1CD PDVDRIP xvid
الرجوع الى أعلى الصفحة 
صفحة 1 من اصل 1
 مواضيع مماثلة
-
» صفقات الأهلي للموسم القادم 2008/2009
» أسعار Bmw 2008 جميع الفئات
» حفل افتتاح دورة الالعاب الاولمبية بكين 2008 |فيديو|
» لعبة فيفا 1996 الى 2008 للتحميل و باتشات فيفا2007
» اسعار السيارات لعام 2008 في السعودية

صلاحيات هذا المنتدى:لاتستطيع الرد على المواضيع في هذا المنتدى
الاهلاوية :: منتدى الافلام :: منتدى الافلام الهندية-
انتقل الى: